Star.Trek.Lower.Decks.S02E10.WEBRip.x264-ION10 > 외국티비 > 공유의 바다 바다보아

팝업레이어 알림

팝업레이어 알림이 없습니다.
 [구글검색] 구글에서 바다보아 검색 - 구글에서 토렌트를 검색하실 때에 검색어 뒤에 바다보아를 꼭 붙여서 검색하세요.     바다보아에서 광고중인 웹에 문제가 있다면 메뉴에 나와 있는 운영자 이메일로 연락 주십시오.     사용자님의 다운로드가 완료될 때까지 저희가 함께하겠습니다. 편안하고 즐거운 시간 되십시오.

파일썬

  

  
Star.Trek.Lower.Decks.S02E10.WEBRip.x264-ION10
  • 파일설명:     Screens... (click to enlarge): Infolink -> https://www.imdb.com/title/tt9184820/Quote:MediainfoVideoID : 1Format : AVCFormat/Info : Advanced Video CodecFormat profile : [email protected]Format settings : CABAC / 5 Ref FramesFormat settings, CABAC : YesFormat settings, Reference frames : 5 framesCodec ID : avc1Codec ID/Info : Advanced Video CodingDuration : 29 min 25 sBit rate : 1 100 kb/sWidth : 720 pixelsHeight : 400 pixelsDisplay aspect ratio : 16:9Frame rate mode : ConstantFrame rate : 24.000 FPSColor space : YUVChroma subsampling : 4:2:0Bit depth : 8 bitsScan type : ProgressiveBits/(Pixel*Frame) : 0.159Stream size : 229 MiB (81%)Title : RARBG - Star.Trek.Lower.Decks.S02E10.WEBRip.x264-ION10Writing library : x264 core 152 r2851M ba24899Encoding settings : cabac=1 / ref=5 / deblock=1:-1:-1 / analyse=0x3:0x113 / me=umh / subme=9 / psy=1 / psy_rd=1.00:0.15 / mixed_ref=1 / me_range=16 / chroma_me=1 / trellis=2 / 8x8dct=1 / cqm=0 / deadzone=21,11 / fast_pskip=1 / chroma_qp_offset=-3 / threads=12 / lookahead_threads=1 / sliced_threads=0 / nr=0 / decimate=1 / interlaced=0 / bluray_compat=0 / constrained_intra=0 / bframes=3 / b_pyramid=2 / b_adapt=2 / b_bias=0 / direct=3 / weightb=1 / open_gop=0 / weightp=2 / keyint=250 / keyint_min=24 / scenecut=40 / intra_refresh=0 / rc_lookahead=50 / rc=abr / mbtree=1 / bitrate=1100 / ratetol=1.0 / qcomp=0.60 / qpmin=0 / qpmax=69 / qpstep=4 / ip_ratio=1.40 / aq=1:1.00Encoded date : UTC 2021-10-14 06:10:56Tagged date : UTC 2021-10-14 06:10:56Codec configuration box : avcCAudioID : 2Format : AAC LCFormat/Info : Advanced Audio Codec Low ComplexityCodec ID : mp4a-40-2Duration : 29 min 25 sDuration_LastFrame : -11 msBit rate mode : ConstantBit rate : 256 kb/sChannel(s) : 2 channelsChannel layout : L RSampling rate : 48.0 kHzFrame rate : 46.875 FPS (1024 SPF)Compression mode : LossyStream size : 53.9 MiB (19%)Title : RARBG - Star.Trek.Lower.Decks.S02E10.WEBRip.x264-ION10Language : EnglishDefault : YesAlternate group : 1Encoded date : UTC 2021-10-14 06:10:56Tagged date : UTC 2021-10-14 06:10:56 Star.Trek.Lower.Decks.S02E10.WEBRip.x264-ION10…
  • 인기 연관 검색어 구글 검색:    StarCraft 토렌트    
  • 관련 자료(가나다순):    9-1-1 Lone Star S01 COMPLETE 720p AMZN WEBRip x264-GalaxyTV ⭐ -…    Young Rock S01E09 A Lady Named Star Search HDTV x264-CRiMSON TG…
  • 관련 자료(시간순):    WWE NXT 2020 05 27 HDTV x264-Star TJET - 바다보아    Star Trek Lower Decks S02E10 WEBRip x264-ION10
  • 같은 시각 자료:    The.Sinner.S04E01.1080p.WEB.h264-GOSSIP    DCs.Legends.Of.Tomorrow.S07E01.1080p.WEB.h264-GOSSIP
  • 마그넷링크 및 토렌트파일:    
직접 다운로드 무료 다운로드 무제한 다운로드 안전 다운로드
광고

Star.Trek.Lower.Decks.S02E10.WEBRip.x264-ION10
댓글 0 조회 0 인증 0 신고 0



Screens... (click to enlarge):











Infolink -> https://www.imdb.com/title/tt9184820/

Quote:

Mediainfo
Video
ID : 1
Format : AVC
Format/Info : Advanced Video Codec
Format profile : [email protected]
Format settings : CABAC / 5 Ref Frames
Format settings, CABAC : Yes
Format settings, Reference frames : 5 frames
Codec ID : avc1
Codec ID/Info : Advanced Video Coding
Duration : 29 min 25 s
Bit rate : 1 100 kb/s
Width : 720 pixels
Height : 400 pixels
Display aspect ratio : 16:9
Frame rate mode : Constant
Frame rate : 24.000 FPS
Color space : YUV
Chroma subsampling : 4:2:0
Bit depth : 8 bits
Scan type : Progressive
Bits/(Pixel*Frame) : 0.159
Stream size : 229 MiB (81%)
Title : RARBG - Star.Trek.Lower.Decks.S02E10.WEBRip.x264-ION10
Writing library : x264 core 152 r2851M ba24899
Encoding settings : cabac=1 / ref=5 / deblock=1:-1:-1 / analyse=0x3:0x113 / me=umh / subme=9 / psy=1 / psy_rd=1.00:0.15 / mixed_ref=1 / me_range=16 / chroma_me=1 / trellis=2 / 8x8dct=1 / cqm=0 / deadzone=21,11 / fast_pskip=1 / chroma_qp_offset=-3 / threads=12 / lookahead_threads=1 / sliced_threads=0 / nr=0 / decimate=1 / interlaced=0 / bluray_compat=0 / constrained_intra=0 / bframes=3 / b_pyramid=2 / b_adapt=2 / b_bias=0 / direct=3 / weightb=1 / open_gop=0 / weightp=2 / keyint=250 / keyint_min=24 / scenecut=40 / intra_refresh=0 / rc_lookahead=50 / rc=abr / mbtree=1 / bitrate=1100 / ratetol=1.0 / qcomp=0.60 / qpmin=0 / qpmax=69 / qpstep=4 / ip_ratio=1.40 / aq=1:1.00
Encoded date : UTC 2021-10-14 06:10:56
Tagged date : UTC 2021-10-14 06:10:56
Codec configuration box : avcC

Audio
ID : 2
Format : AAC LC
Format/Info : Advanced Audio Codec Low Complexity
Codec ID : mp4a-40-2
Duration : 29 min 25 s
Duration_LastFrame : -11 ms
Bit rate mode : Constant
Bit rate : 256 kb/s
Channel(s) : 2 channels
Channel layout : L R
Sampling rate : 48.0 kHz
Frame rate : 46.875 FPS (1024 SPF)
Compression mode : Lossy
Stream size : 53.9 MiB (19%)
Title : RARBG - Star.Trek.Lower.Decks.S02E10.WEBRip.x264-ION10
Language : English
Default : Yes
Alternate group : 1
Encoded date : UTC 2021-10-14 06:10:56
Tagged date : UTC 2021-10-14 06:10:56

Star.Trek.Lower.Decks.S02E10.WEBRip.x264-ION10


<< 이 게시판에서 관련된 자료 목록 >>
0 Comments     0.0 / 0
 [구글검색] 구글에서 바다보아 검색 - 구글에서 토렌트를 검색하실 때에 검색어 뒤에 바다보아를 꼭 붙여서 검색하세요.     바다보아에서 광고중인 웹에 문제가 있다면 메뉴에 나와 있는 운영자 이메일로 연락 주십시오.     사용자님의 다운로드가 완료될 때까지 저희가 함께하겠습니다. 편안하고 즐거운 시간 되십시오.

파일몽

  

  

IMFORMATION STORE

상단으로 가운데로 하단으로