The Master (2012) (1080p x265 HEVC 10bit BluRay AC3 5.1) [Prof] > 영화 > 공유의 바다 바다보아

팝업레이어 알림

팝업레이어 알림이 없습니다.
 [구글검색] 구글에서 바다보아 검색 - 구글에서 토렌트를 검색하실 때에 검색어 뒤에 바다보아를 꼭 붙여서 검색하세요.     바다보아에서 광고중인 웹에 문제가 있다면 메뉴에 나와 있는 운영자 이메일로 연락 주십시오.     사용자님의 다운로드가 완료될 때까지 저희가 함께하겠습니다. 편안하고 즐거운 시간 되십시오.

파일비트

  

  
The Master (2012) (1080p x265 HEVC 10bit BluRay AC3 5.1) [Prof]
  • 줄거리:    General Format : Matroska Format version : Version 4 File size : 8.19 GiB Duration : 2 h 17 min Overall bit rate : 8 525 kb/s Encoded date : UTC 2021-10-12 21:21:52 Writing application : mkvmerge v59.0.0 (Shining Star) 64-bit Writing library : libebml v1.4.2 + libmatroska v1.6.4 Video ID : 1 Format : HEVC Format/Info : High Efficiency Video Coding Format profile : Main [email protected]@Main Codec ID : V_MPEGH/ISO/HEVC Duration : 2 h 17 min Bit rate : 7 866 kb/s Width : 1 920 pixels Height : 1 032 pixels Display aspect ratio : 1.85:1 Frame rate mode : Constant Frame rate : 23.976 (24000/1001) FPS Color space : YUV Chroma subsampling : 4:2:0 Bit depth : 10 bits Bits/(Pixel*Frame) : 0.166 Stream size : 7.56 GiB (92%) Writing library : x265 3.5+12+14-106329cbd:[Windows][GCC 10.3.0][64 bit] 10bit Encoding settings : cpuid=1111039 / frame-threads=4 / numa-pools=24 / wpp / no-pmode / no-pme / no-psnr / no-ssim / log-level=2 / input-csp=1 / input-res=1920x1032 / interlace=0 / total-frames=197803 / level-idc=0 / high-tier=1 / uhd-bd=0 / ref=4 / no-allow-non-conformance / no-repeat-headers / annexb / no-aud / no-eob / no-eos / no-hrd / info / hash=0 / no-temporal-layers / open-gop / min-keyint=23 / keyint=250 / gop-lookahead=0 / bframes=8 / b-adapt=2 / b-pyramid / bframe-bias=0 / rc-lookahead=80 / lookahead-slices=6 / scenecut=40 / no-hist-scenecut / radl=0 / no-splice / no-intra-refresh / ctu=64 / min-cu-size=8 / rect / no-amp / max-tu-size=32 / tu-inter-depth=1 / tu-intra-depth=1 / limit-tu=0 / rdoq-level=2 / dynamic-rd=0.00 / no-ssim-rd / signhide / no-tskip / nr-intra=0 / nr-inter=0 / no-constrained-intra / strong-intra-smoothing / max-merge=3 / limit-refs=3 / limit-modes / me=3 / subme=3 / merange=57 / temporal-mvp / no-frame-dup / no-hme / weightp / no-weightb / no-analyze-src-pics / deblock=0:0 / sao / no-sao-non-deblock / rd=4 / selective-sao=4 / no-early-skip / rskip / no-fast-intra / no-tskip-fast / no-cu-lossless / no-b-intra / no-splitrd-skip / rdpenalty=0 / psy-rd=2.00 / psy-rdoq=1.00 / no-rd-refine / no-lossless / cbqpoffs=0 / crqpoffs=0 / rc=crf / crf=18.0 / qcomp=0.60 / qpstep=4 / stats-write=0 / stats-read=0 / ipratio=1.40 / pbratio=1.30 / aq-mode=3 / aq-strength=1.00 / cutree / zone-count=0 / no-strict-cbr / qg-size=32 / no-rc-grain / qpmax=69 / qpmin=0 / no-const-vbv / sar=0 / overscan=0 / videoformat=5 / range=0 / colorprim=2 / transfer=2 / colormatrix=2 / chromaloc=0 / display-window=0 / cll=0,0 / min-luma=0 / max-luma=1023 / log2-max-poc-lsb=8 / vui-timing-info / vui-hrd-info / slices=1 / no-opt-qp-pps / no-opt-ref-list-length-pps / no-multi-pass-opt-rps / scenecut-bias=0.05 / hist-threshold=0.03 / no-opt-cu-delta-qp / no-aq-motion / no-hdr10 / no-hdr10-opt / no-dhdr10-opt / no-idr-recovery-sei / analysis-reuse-level=0 / analysis-save-reuse-level=0 / analysis-load-reuse-level=0 / scale-factor=0 / refine-intra=0 / refine-inter=0 / refine-mv=1 / refine-ctu-distortion=0 / no-limit-sao / ctu-info=0 / no-lowpass-dct / refine-analysis-type=0 / copy-pic=1 / max-ausize-factor=1.0 / no-dynamic-refine / no-single-sei / no-hevc-aq / no-svt / no-field / qp-adaptation-range=1.00 / scenecut-aware-qp=0 / conformance-window-right-offset=0 / conformance-window-bottom-offset=0 / decoder-max-rate=0 / no-vbv-live-multi-pass Default : Yes Forced : No Audio ID : 2 Format : AC-3 Format/Info : Audio Coding 3 Commercial name : Dolby Digital Codec ID : A_AC3 Duration : 2 h 17 min Bit rate mode : Constant Bit rate : 640 kb/s Channel(s) : 6 channels Channel layout : L R C LFE Ls Rs Sampling rate : 48.0 kHz Frame rate : 31.250 FPS (1536 SPF) Compression mode : Lossy Stream size : 629 MiB (8%) Language : English Service kind : Complete Main Default : Yes Forced : No Text #1 ID : 3 Format : PGS Muxing mode : zlib Codec ID : S_HDMV/PGS Codec ID/Info : Picture based subtitle format used on BDs/HD-DVDs Duration : 2 h 12 min Bit rate : 32.9 kb/s Count of elements : 3136 Stream size : 31.2 MiB (0%) Title : SDH Language : English Default : No Forced : No Text #2 ID : 4 Format : PGS Muxing mode : zlib Codec ID : S_HDMV/PGS Codec ID/Info : Picture based subtitle format used on BDs/HD-DVDs Duration : 2 h 16 min Bit rate : 29.3 kb/s Count of elements : 2868 Stream size : 28.7 MiB (0%) Language : Spanish Default : No Forced : No Menu 00:00:00.000 : Intro 1945/Freddie Quell 00:17:29.033 : Lancaster Dodd/Aboard the Alethia 00:36:34.166 : Processing 00:54:48.366 : ARoving 01:16:30.200 : Fromthe Window to the Wall 01:34:40.834 : The Split Saber 01:47:04.702 : No Other Love 01:55:38.369 : England Source: Remux 27 GB Coming Soon: The Next Three Days The Mechanic Cop Land Rise of the Planet of the Apes 4k Crash Curse of the Golden Flower Defiance Dawn of the Planet of the Apes 4k The Manchurian Candidate The Man Who Wasnt There The Machinist The Life Aquatic with Steve Zissou War for the Planet of the Apes 4k Delirious Detachment Detroit Rock City Dirty Work Deadpool 4k Ballers S02 Mobile Suit Gundam: Iron-Blooded Orphans S01 Berserk: Golden Age Arc I - The Egg of the King The Master (2012) (1080p x265 HEVC 10bit BluRay AC3 5.1) [Prof]…
  • 인기 연관 검색어 구글 검색:    
  • 관련 자료(가나다순):    12 몽키즈 Twelve Monkeys 1995 REMASTERED 720p BRRip 1 2GB MkvCage …    히트 Heat 1995 REMASTERED 1080p BluRay H264 AAC-RARBG - 바다보아
  • 관련 자료(시간순):    마스터 Master 2016 1080p FHDRip H264 AAC - 바다보아    Back to the Future Part III 1990 REMASTERED 720p BluRay 999MB H…
  • 같은 시각 자료:    Copshop.2021.1080p.AMZN.WEB-DL.DDP5.1.H.264-CMRG    Dear.Evan.Hansen.2021.HDRip.XviD.AC3-EVO
  • 마그넷링크 및 토렌트파일:     마그넷링크     토렌트파일     다시보기
직접 다운로드 무료 다운로드 무제한 다운로드 안전 다운로드
광고

The Master (2012) (1080p x265 HEVC 10bit BluRay AC3 5.1) [Prof]
댓글 0 조회 1 인증 0 신고 0

The-Master-2012-mkv-snapshot-00-09-32-2021-10-13-17-46-12.png

The-Master-2012-mkv-snapshot-01-27-58-2021-10-13-17-46-51.png

The-Master-2012-mkv-snapshot-02-04-07-2021-10-13-17-47-12.png

The-Master-2012-mkv-snapshot-00-09-32-2021-10-13-17-46-12.png

The-Master-2012-mkv-snapshot-01-27-58-2021-10-13-17-46-51.png

The-Master-2012-mkv-snapshot-02-04-07-2021-10-13-17-47-12.png

General

Format : Matroska
Format version : Version 4
File size : 8.19 GiB
Duration : 2 h 17 min
Overall bit rate : 8 525 kb/s
Encoded date : UTC 2021-10-12 21:21:52
Writing application : mkvmerge v59.0.0 (Shining Star) 64-bit
Writing library : libebml v1.4.2 + libmatroska v1.6.4

Video
ID : 1
Format : HEVC
Format/Info : High Efficiency Video Coding
Format profile : Main [email protected]@Main
Codec ID : V_MPEGH/ISO/HEVC
Duration : 2 h 17 min
Bit rate : 7 866 kb/s
Width : 1 920 pixels
Height : 1 032 pixels
Display aspect ratio : 1.85:1
Frame rate mode : Constant
Frame rate : 23.976 (24000/1001) FPS
Color space : YUV
Chroma subsampling : 4:2:0
Bit depth : 10 bits
Bits/(Pixel*Frame) : 0.166
Stream size : 7.56 GiB (92%)
Writing library : x265 3.5+12+14-106329cbd:[Windows][GCC 10.3.0][64 bit] 10bit
Encoding settings : cpuid=1111039 / frame-threads=4 / numa-pools=24 / wpp / no-pmode / no-pme / no-psnr / no-ssim / log-level=2 / input-csp=1 / input-res=1920x1032 / interlace=0 / total-frames=197803 / level-idc=0 / high-tier=1 / uhd-bd=0 / ref=4 / no-allow-non-conformance / no-repeat-headers / annexb / no-aud / no-eob / no-eos / no-hrd / info / hash=0 / no-temporal-layers / open-gop / min-keyint=23 / keyint=250 / gop-lookahead=0 / bframes=8 / b-adapt=2 / b-pyramid / bframe-bias=0 / rc-lookahead=80 / lookahead-slices=6 / scenecut=40 / no-hist-scenecut / radl=0 / no-splice / no-intra-refresh / ctu=64 / min-cu-size=8 / rect / no-amp / max-tu-size=32 / tu-inter-depth=1 / tu-intra-depth=1 / limit-tu=0 / rdoq-level=2 / dynamic-rd=0.00 / no-ssim-rd / signhide / no-tskip / nr-intra=0 / nr-inter=0 / no-constrained-intra / strong-intra-smoothing / max-merge=3 / limit-refs=3 / limit-modes / me=3 / subme=3 / merange=57 / temporal-mvp / no-frame-dup / no-hme / weightp / no-weightb / no-analyze-src-pics / deblock=0:0 / sao / no-sao-non-deblock / rd=4 / selective-sao=4 / no-early-skip / rskip / no-fast-intra / no-tskip-fast / no-cu-lossless / no-b-intra / no-splitrd-skip / rdpenalty=0 / psy-rd=2.00 / psy-rdoq=1.00 / no-rd-refine / no-lossless / cbqpoffs=0 / crqpoffs=0 / rc=crf / crf=18.0 / qcomp=0.60 / qpstep=4 / stats-write=0 / stats-read=0 / ipratio=1.40 / pbratio=1.30 / aq-mode=3 / aq-strength=1.00 / cutree / zone-count=0 / no-strict-cbr / qg-size=32 / no-rc-grain / qpmax=69 / qpmin=0 / no-const-vbv / sar=0 / overscan=0 / videoformat=5 / range=0 / colorprim=2 / transfer=2 / colormatrix=2 / chromaloc=0 / display-window=0 / cll=0,0 / min-luma=0 / max-luma=1023 / log2-max-poc-lsb=8 / vui-timing-info / vui-hrd-info / slices=1 / no-opt-qp-pps / no-opt-ref-list-length-pps / no-multi-pass-opt-rps / scenecut-bias=0.05 / hist-threshold=0.03 / no-opt-cu-delta-qp / no-aq-motion / no-hdr10 / no-hdr10-opt / no-dhdr10-opt / no-idr-recovery-sei / analysis-reuse-level=0 / analysis-save-reuse-level=0 / analysis-load-reuse-level=0 / scale-factor=0 / refine-intra=0 / refine-inter=0 / refine-mv=1 / refine-ctu-distortion=0 / no-limit-sao / ctu-info=0 / no-lowpass-dct / refine-analysis-type=0 / copy-pic=1 / max-ausize-factor=1.0 / no-dynamic-refine / no-single-sei / no-hevc-aq / no-svt / no-field / qp-adaptation-range=1.00 / scenecut-aware-qp=0 / conformance-window-right-offset=0 / conformance-window-bottom-offset=0 / decoder-max-rate=0 / no-vbv-live-multi-pass
Default : Yes
Forced : No

Audio
ID : 2
Format : AC-3
Format/Info : Audio Coding 3
Commercial name : Dolby Digital
Codec ID : A_AC3
Duration : 2 h 17 min
Bit rate mode : Constant
Bit rate : 640 kb/s
Channel(s) : 6 channels
Channel layout : L R C LFE Ls Rs
Sampling rate : 48.0 kHz
Frame rate : 31.250 FPS (1536 SPF)
Compression mode : Lossy
Stream size : 629 MiB (8%)
Language : English
Service kind : Complete Main
Default : Yes
Forced : No

Text #1
ID : 3
Format : PGS
Muxing mode : zlib
Codec ID : S_HDMV/PGS
Codec ID/Info : Picture based subtitle format used on BDs/HD-DVDs
Duration : 2 h 12 min
Bit rate : 32.9 kb/s
Count of elements : 3136
Stream size : 31.2 MiB (0%)
Title : SDH
Language : English
Default : No
Forced : No

Text #2
ID : 4
Format : PGS
Muxing mode : zlib
Codec ID : S_HDMV/PGS
Codec ID/Info : Picture based subtitle format used on BDs/HD-DVDs
Duration : 2 h 16 min
Bit rate : 29.3 kb/s
Count of elements : 2868
Stream size : 28.7 MiB (0%)
Language : Spanish
Default : No
Forced : No

Menu
00:00:00.000 : Intro 1945/Freddie Quell
00:17:29.033 : Lancaster Dodd/Aboard the Alethia
00:36:34.166 : Processing
00:54:48.366 : ARoving
01:16:30.200 : Fromthe Window to the Wall
01:34:40.834 : The Split Saber
01:47:04.702 : No Other Love
01:55:38.369 : England

Source:

Remux 27 GB

Coming Soon:

The Next Three Days
The Mechanic
Cop Land
Rise of the Planet of the Apes 4k
Crash
Curse of the Golden Flower
Defiance
Dawn of the Planet of the Apes 4k
The Manchurian Candidate
The Man Who Wasnt There
The Machinist
The Life Aquatic with Steve Zissou
War for the Planet of the Apes 4k
Delirious
Detachment
Detroit Rock City
Dirty Work
Deadpool 4k
Ballers S02
Mobile Suit Gundam: Iron-Blooded Orphans S01
Berserk: Golden Age Arc I - The Egg of the King

The Master (2012) (1080p x265 HEVC 10bit BluRay AC3 5.1) [Prof]


<< 이 게시판에서 관련된 자료 목록 >>
0 Comments     0.0 / 0
 [구글검색] 구글에서 바다보아 검색 - 구글에서 토렌트를 검색하실 때에 검색어 뒤에 바다보아를 꼭 붙여서 검색하세요.     바다보아에서 광고중인 웹에 문제가 있다면 메뉴에 나와 있는 운영자 이메일로 연락 주십시오.     사용자님의 다운로드가 완료될 때까지 저희가 함께하겠습니다. 편안하고 즐거운 시간 되십시오.

파일비트

  

  

IMFORMATION STORE

상단으로 가운데로 하단으로